EuroTeenErotica com-Bernice(2011HD720p).wmv.MediaInfo.txt

(3 KB) Pobierz
General
Complete name                    : \\Server-pc\d\DDFPod Pack4\EuroTeenErotica com-Bernice(2011HD720p)\EuroTeenErotica com-Bernice(2011HD720p).wmv
Format                           : Windows Media
File size                        : 871 MiB
Duration                         : 29mn 13s
Overall bit rate mode            : Constant
Overall bit rate                 : 4 166 Kbps
Maximum Overall bit rate         : 4 162 Kbps
Encoded date                     : UTC 2011-03-21 14:31:51.787

Video
ID                               : 2
Format                           : VC-1
Format profile                   : MP@HL
Codec ID                         : WMV3
Codec ID/Info                    : Windows Media Video 9
Codec ID/Hint                    : WMV3
Description of the codec         : Windows Media Video 9 - Professional
Duration                         : 29mn 13s
Bit rate mode                    : Constant
Bit rate                         : 4 000 Kbps
Width                            : 1 280 pixels
Height                           : 720 pixels
Display aspect ratio             : 16:9
Frame rate                       : 29.970 fps
Bit depth                        : 8 bits
Scan type                        : Progressive
Compression mode                 : Lossy
Bits/(Pixel*Frame)               : 0.145
Stream size                      : 836 MiB (96%)

Audio
ID                               : 1
Format                           : WMA
Format version                   : Version 2
Codec ID                         : 161
Codec ID/Info                    : Windows Media Audio
Description of the codec         : Windows Media Audio 9.2 - 128 kbps, 44 kHz, stereo 1-pass CBR
Duration                         : 29mn 13s
Bit rate mode                    : Constant
Bit rate                         : 128 Kbps
Channel(s)                       : 2 channels
Sampling rate                    : 44.1 KHz
Bit depth                        : 16 bits
Stream size                      : 26.8 MiB (3%)

Zgłoś jeśli naruszono regulamin